<?xml version="1.0" encoding="utf-8"?>
<!-- Generator: Adobe Illustrator 15.1.0, SVG Export Plug-In  -->
<!DOCTYPE svg PUBLIC "-//W3C//DTD SVG 1.1//EN" "http://www.w3.org/Graphics/SVG/1.1/DTD/svg11.dtd" [
	<!ENTITY ns_flows "http://ns.adobe.com/Flows/1.0/">
]>
<svg version="1.1"
	 xmlns="http://www.w3.org/2000/svg" xmlns:xlink="http://www.w3.org/1999/xlink" xmlns:a="http://ns.adobe.com/AdobeSVGViewerExtensions/3.0/"
	 x="0px" y="0px" width="600px" height="600px" viewBox="0 0 600 600" enable-background="new 0 0 600 600" xml:space="preserve">
<font horiz-adv-x="1000">
<!-- Graphik is a trademark of Commercial Type/Schwartzco Inc. -->
<!-- Copyright: Copyright 2023 Adobe System Incorporated. All rights reserved. -->
<font-face font-family="Graphik-Regular" units-per-em="1000" underline-position="-75" underline-thickness="50"/>
<missing-glyph horiz-adv-x="500"/>
<glyph unicode=" " horiz-adv-x="265"/>
<glyph unicode="A" horiz-adv-x="674" d="M36,0l246,715l114,0l242,-715l-86,0l-70,206l-295,0l-69,-206M335,643l-124,-368l248,0z"/>
<glyph unicode="B" horiz-adv-x="622" d="M90,0l0,715l215,0C458,715 535,653 535,530l0,-4C535,450 499,400 427,375C478,363 515,343 537,316C559,289 570,251 570,204l0,-4C570,134 549,84 508,51C466,17 408,0 335,0M175,68l158,0C434,68 485,112 485,201l0,4C485,250 472,283 446,304C419,325 378,335 321,335l-146,0M175,403l130,0C357,403 394,413 417,433C439,452 450,484 450,529l0,4C450,573 438,602 415,620C391,638 354,647 303,647l-128,0z"/>
<glyph unicode="H" horiz-adv-x="730" d="M90,0l0,715l87,0l0,-324l376,0l0,324l87,0l0,-715l-87,0l0,318l-376,0l0,-318z"/>
<glyph unicode="R" horiz-adv-x="628" d="M90,0l0,715l215,0C379,715 439,699 486,666C532,633 555,583 555,516l0,-4C555,457 539,413 507,381C474,348 431,327 378,317l219,-317l-97,0l-213,311l-110,0l0,-311M177,380l134,0C416,380 468,424 468,512l0,4C468,563 455,596 428,616C401,635 362,645 311,645l-134,0z"/>
<glyph unicode="S" horiz-adv-x="627" d="M321,-9C232,-9 167,12 124,54C81,95 55,150 48,218l84,0C135,195 140,174 147,157C153,140 163,123 176,108C189,93 208,81 233,73C257,65 286,61 321,61C368,61 407,74 438,99C469,124 484,156 484,196C484,237 472,268 448,288C424,307 378,322 311,333C230,345 170,366 131,396C92,425 72,470 72,530C72,585 94,632 137,669C180,706 235,724 302,724C374,724 431,707 474,673C517,639 541,590 548,527l-78,0C461,572 444,604 417,624C390,644 352,654 302,654C255,654 218,643 192,622C166,601 153,573 153,538C153,501 164,473 187,454C210,435 256,421 325,410C409,397 471,375 510,345C549,314 568,267 568,202C568,142 545,92 498,52C451,11 392,-9 321,-9z"/>
<glyph unicode="a" horiz-adv-x="540" d="M215,-9C164,-9 122,4 90,30C57,55 41,94 41,145C41,201 66,242 116,268C165,294 228,307 303,307l75,0l0,38C378,387 369,417 352,436C335,454 306,463 266,463C194,463 154,432 146,369l-83,0C68,425 90,466 129,493C168,519 215,532 270,532C397,532 461,470 461,345l0,-345l-83,0l0,66C338,16 284,-9 215,-9M223,57C268,57 306,68 335,91C364,113 378,144 378,183l0,65l-72,0C185,248 124,214 124,145C124,86 157,57 223,57z"/>
<glyph unicode="c" horiz-adv-x="570" d="M301,-9C227,-9 166,15 118,64C69,112 45,176 45,256l0,8C45,343 70,407 119,457C168,507 228,532 299,532C359,532 410,517 452,488C494,458 519,412 526,349l-82,0C432,425 384,463 299,463C250,463 210,445 179,409C147,372 131,324 131,264l0,-8C131,193 147,145 178,111C209,77 250,60 302,60C341,60 375,71 404,94C432,116 448,147 452,188l77,0C524,131 500,84 458,47C415,10 363,-9 301,-9z"/>
<glyph unicode="d" horiz-adv-x="627" d="M281,-9C211,-9 154,14 111,61C67,108 45,171 45,251l0,8C45,339 68,405 113,456C158,507 217,532 289,532C366,532 423,501 460,439l0,334l83,0l0,-773l-83,0l0,90C444,63 419,40 386,21C353,1 318,-9 281,-9M290,60C341,60 383,77 415,111C447,144 463,193 463,258l0,8C463,331 449,381 420,414C391,447 350,463 297,463C245,463 204,446 175,411C146,376 131,326 131,263l0,-8C131,192 146,143 176,110C205,77 243,60 290,60z"/>
<glyph unicode="e" horiz-adv-x="568" d="M298,-9C223,-9 163,15 116,64C69,112 45,176 45,256l0,8C45,343 68,407 114,457C159,507 218,532 290,532C357,532 413,511 458,468C503,425 525,359 525,272l0,-27l-394,0C133,185 148,139 177,108C205,76 246,60 299,60C381,60 427,90 438,151l83,0C512,100 488,60 448,33C408,5 358,-9 298,-9M134,312l306,0C433,413 383,463 290,463C248,463 213,450 186,423C159,396 141,359 134,312z"/>
<glyph unicode="i" horiz-adv-x="255" d="M86,0l0,523l83,0l0,-523M165,648C154,637 141,632 126,632C111,632 99,637 88,648C77,659 71,672 71,687C71,702 77,715 88,726C99,737 111,742 126,742C141,742 154,737 165,726C176,715 181,702 181,687C181,672 176,659 165,648z"/>
<glyph unicode="l" horiz-adv-x="256" d="M86,0l0,773l84,0l0,-773z"/>
<glyph unicode="m" horiz-adv-x="910" d="M84,0l0,523l83,0l0,-80C180,469 200,490 228,507C255,524 287,532 323,532C400,532 451,499 476,434C493,466 518,490 552,507C585,524 620,532 655,532C706,532 749,515 782,482C815,448 831,395 831,324l0,-324l-83,0l0,330C748,417 711,460 637,460C600,460 567,448 540,423C513,398 499,364 499,320l0,-320l-83,0l0,330C416,417 379,460 305,460C268,460 235,448 208,423C181,398 167,364 167,320l0,-320z"/>
<glyph unicode="n" horiz-adv-x="598" d="M84,0l0,523l83,0l0,-83C180,467 201,489 230,506C259,523 294,532 335,532C392,532 437,515 470,481C503,447 519,394 519,321l0,-321l-83,0l0,327C436,373 426,407 406,428C386,449 355,460 313,460C272,460 238,447 210,422C181,397 167,362 167,317l0,-317z"/>
<glyph unicode="o" horiz-adv-x="604" d="M302,60C354,60 396,78 427,114C458,150 473,198 473,257l0,7C473,325 458,373 427,409C396,445 354,463 302,463C249,463 208,445 177,409C146,373 131,325 131,265l0,-8C131,197 146,149 177,114C208,78 249,60 302,60M301,-9C227,-9 166,16 118,67C69,117 45,180 45,257l0,8C45,343 69,407 118,457C166,507 227,532 302,532C377,532 438,507 487,458C535,408 559,344 559,266l0,-8C559,179 535,115 486,66C437,16 376,-9 301,-9z"/>
<glyph unicode="p" horiz-adv-x="627" d="M84,-182l0,705l83,0l0,-88C183,462 207,485 240,504C273,523 307,532 344,532C414,532 471,508 516,461C560,413 582,349 582,269l0,-8C582,180 560,115 517,66C473,16 415,-9 344,-9C303,-9 268,0 237,18C206,35 183,58 167,86l0,-268M336,60C388,60 428,77 455,111C482,145 496,194 496,257l0,8C496,328 481,377 451,412C420,446 382,463 335,463C284,463 243,446 212,413C180,379 164,330 164,265l0,-8C164,192 180,143 211,110C242,77 283,60 336,60z"/>
<glyph unicode="q" horiz-adv-x="627" d="M460,-182l0,272C444,63 419,40 386,21C353,1 318,-9 281,-9C211,-9 154,14 111,61C67,108 45,171 45,251l0,8C45,339 68,405 113,456C158,507 217,532 289,532C366,532 423,501 460,439l0,84l83,0l0,-705M290,60C341,60 383,77 415,111C447,144 463,193 463,258l0,8C463,331 449,381 420,414C391,447 350,463 297,463C245,463 204,446 175,411C146,376 131,326 131,263l0,-8C131,192 146,143 176,110C205,77 243,60 290,60z"/>
<glyph unicode="r" horiz-adv-x="376" d="M84,0l0,523l83,0l0,-94C185,462 207,487 234,504C260,521 295,531 339,532l0,-78C282,451 239,438 210,414C181,390 167,348 167,287l0,-287z"/>
<glyph unicode="s" horiz-adv-x="480" d="M246,-9C183,-9 134,6 99,36C63,66 44,108 41,161l81,0C129,94 170,60 245,60C321,60 359,88 359,143C359,169 350,188 331,201C312,213 280,223 237,231C169,244 122,261 95,284C68,306 55,340 55,385C55,430 73,466 110,493C146,519 187,532 232,532C345,532 408,482 421,381l-80,0C335,410 323,431 306,444C289,457 264,463 231,463C201,463 177,456 159,443C141,429 132,411 132,388C132,364 141,346 158,335C175,324 207,314 254,305C285,299 311,293 330,288C349,282 367,273 386,262C404,251 417,236 426,218C434,199 438,177 438,150C438,101 422,63 389,34C356,5 308,-9 246,-9z"/>
<glyph unicode="t" horiz-adv-x="355" d="M243,-7C197,-7 162,5 138,30C114,55 102,88 102,131l0,322l-75,0l0,70l75,0l0,119l83,0l0,-119l122,0l0,-70l-122,0l0,-314C185,88 207,63 250,63C274,63 295,67 314,74l0,-70C293,-3 270,-7 243,-7z"/>
<glyph unicode="u" horiz-adv-x="594" d="M261,-9C206,-9 162,7 129,40C96,73 79,123 79,192l0,331l83,0l0,-327C162,150 172,116 192,95C211,74 242,63 283,63C322,63 356,76 385,101C413,126 427,161 427,206l0,317l83,0l0,-523l-83,0l0,83C414,56 394,34 365,17C336,0 301,-9 261,-9z"/>
<glyph unicode="v" horiz-adv-x="534" d="M215,0l-190,523l90,0l155,-439l153,439l86,0l-188,-523z"/>
</font>

	<font horiz-adv-x="1000">
<!-- Graphik is a trademark of Commercial Type/Schwartzco Inc. -->
<!-- Copyright: Copyright 2023 Adobe System Incorporated. All rights reserved. -->
<font-face font-family="Graphik-Medium" units-per-em="1000" underline-position="-75" underline-thickness="50"/>
<missing-glyph horiz-adv-x="508"/>
<glyph unicode=" " horiz-adv-x="238"/>
<glyph unicode="/" horiz-adv-x="415" d="M-6,-148l301,924l103,0l-302,-924z"/>
<glyph unicode="A" horiz-adv-x="703" d="M27,0l239,715l174,0l236,-715l-138,0l-57,177l-273,0l-56,-177M345,606l-106,-332l211,0z"/>
<glyph unicode="B" horiz-adv-x="645" d="M82,0l0,715l256,0C494,715 572,653 572,529l0,-4C572,447 534,396 459,373C508,362 544,343 567,316C590,289 602,251 602,204l0,-4C602,134 581,84 539,51C497,17 436,0 357,0M212,95l129,0C428,95 471,133 471,209l0,4C471,250 460,278 438,297C415,315 380,324 332,324l-120,0M212,414l110,0C365,414 397,422 416,439C435,456 444,482 444,519l0,4C444,557 434,582 414,597C394,612 363,620 320,620l-108,0z"/>
<glyph unicode="H" horiz-adv-x="751" d="M82,0l0,715l133,0l0,-304l321,0l0,304l134,0l0,-715l-134,0l0,304l-321,0l0,-304z"/>
<glyph unicode="M" horiz-adv-x="890" d="M82,0l0,715l178,0l188,-488l184,488l176,0l0,-715l-133,0l0,540l-213,-540l-43,0l-217,540l0,-540z"/>
<glyph unicode="R" horiz-adv-x="655" d="M82,0l0,715l240,0C404,715 469,698 517,663C565,628 589,576 589,505l0,-4C589,400 536,336 430,309l201,-309l-144,0l-187,289l-85,0l0,-289M215,384l107,0C413,384 458,422 458,498l0,4C458,541 447,570 424,587C401,604 367,612 322,612l-107,0z"/>
<glyph unicode="S" horiz-adv-x="635" d="M325,-10C232,-10 162,11 116,52C69,93 43,150 38,222l128,0C171,180 185,148 208,125C231,102 270,90 325,90C365,90 398,100 423,121C448,141 460,167 460,200C460,233 450,258 429,273C408,288 369,301 311,310C222,322 158,344 119,375C79,406 59,454 59,519C59,578 82,627 128,666C174,705 234,724 308,724C385,724 446,707 491,672C536,637 561,585 568,517l-122,0C439,554 425,582 403,599C381,616 349,624 308,624C269,624 238,616 217,599C196,582 185,559 185,530C185,499 195,476 215,461C234,446 274,434 333,425C422,413 486,392 527,361C568,330 588,280 588,211C588,148 564,95 515,53C466,11 403,-10 325,-10z"/>
<glyph unicode="U" horiz-adv-x="723" d="M357,-10C267,-10 198,14 149,63C100,111 76,181 76,272l0,443l134,0l0,-433C210,216 222,169 245,140C268,111 305,97 358,97C411,97 451,112 476,141C501,170 513,220 513,291l0,424l134,0l0,-435C647,186 622,114 573,65C523,15 451,-10 357,-10z"/>
<glyph unicode="a" horiz-adv-x="555" d="M209,-10C158,-10 116,3 83,29C50,54 34,93 34,145C34,202 58,244 107,271C156,298 221,311 302,311l65,0l0,27C367,374 360,401 346,418C331,435 307,443 272,443C211,443 178,416 172,361l-117,0C60,419 83,462 124,491C165,520 216,534 279,534C418,534 488,470 488,343l0,-343l-119,0l0,64C332,15 278,-10 209,-10M238,77C276,77 307,87 331,106C355,125 367,150 367,183l0,52l-62,0C204,235 154,207 154,150C154,101 182,77 238,77z"/>
<glyph unicode="c" horiz-adv-x="575" d="M301,-10C224,-10 161,14 112,62C62,109 37,174 37,255l0,8C37,344 62,410 113,460C164,509 226,534 301,534C365,534 419,518 464,487C508,455 533,405 540,338l-117,0C414,404 374,437 303,437C261,437 227,422 201,391C174,360 161,318 161,265l0,-8C161,201 174,158 200,128C225,98 261,83 306,83C339,83 368,93 392,113C415,132 429,160 432,195l111,0C538,134 514,84 471,47C428,9 371,-10 301,-10z"/>
<glyph unicode="d" horiz-adv-x="633" d="M268,-10C200,-10 145,13 102,60C59,106 38,170 38,253l0,8C38,344 60,410 104,460C148,509 204,534 273,534C350,534 406,504 440,443l0,322l121,0l0,-765l-121,0l0,88C425,61 402,38 371,19C339,0 305,-10 268,-10M298,86C342,86 377,101 404,130C431,159 444,202 444,259l0,8C444,324 432,367 407,396C382,425 348,439 303,439C258,439 224,424 199,394C174,363 162,320 162,264l0,-8C162,201 175,159 200,130C225,101 257,86 298,86z"/>
<glyph unicode="e" horiz-adv-x="580" d="M302,-10C224,-10 160,14 111,62C62,110 37,175 37,256l0,8C37,344 62,409 111,459C160,509 222,534 297,534C368,534 427,512 474,468C521,424 544,358 544,270l0,-35l-383,0C163,185 176,147 201,120C226,93 260,80 305,80C376,80 416,107 425,160l117,0C533,105 508,63 466,34C424,5 369,-10 302,-10M163,316l261,0C418,403 376,446 297,446C261,446 231,435 208,412C184,389 169,357 163,316z"/>
<glyph unicode="i" horiz-adv-x="271" d="M75,0l0,523l121,0l0,-523M62,678C62,698 69,715 83,728C97,741 114,748 134,748C154,748 171,741 185,728C199,715 206,698 206,678C206,659 199,642 185,629C171,616 154,609 134,609C114,609 97,616 83,629C69,642 62,659 62,678z"/>
<glyph unicode="l" horiz-adv-x="271" d="M75,0l0,765l121,0l0,-765z"/>
<glyph unicode="m" horiz-adv-x="918" d="M72,0l0,523l121,0l0,-80C206,469 227,491 255,508C283,525 315,534 352,534C425,534 475,503 500,440C519,471 545,494 577,510C609,526 642,534 677,534C728,534 770,517 803,484C835,450 851,399 851,331l0,-331l-121,0l0,323C730,396 699,433 637,433C605,433 578,423 556,402C533,381 522,351 522,313l0,-313l-121,0l0,323C401,396 370,433 308,433C276,433 249,423 227,402C204,381 193,351 193,313l0,-313z"/>
<glyph unicode="n" horiz-adv-x="608" d="M72,0l0,523l121,0l0,-83C206,467 228,490 257,508C286,525 321,534 362,534C417,534 461,517 493,484C525,450 541,398 541,329l0,-329l-121,0l0,318C420,357 412,386 395,405C378,424 352,433 316,433C280,433 251,422 228,401C205,379 193,348 193,308l0,-308z"/>
<glyph unicode="o" horiz-adv-x="611" d="M306,84C351,84 386,100 412,131C437,162 450,204 450,258l0,7C450,319 437,362 412,393C386,424 351,439 306,439C261,439 225,424 200,393C174,362 161,320 161,266l0,-8C161,204 174,162 200,131C225,100 261,84 306,84M37,256l0,8C37,344 62,409 113,459C164,509 228,534 306,534C383,534 447,509 498,460C549,411 574,346 574,267l0,-8C574,178 549,113 498,64C447,15 383,-10 305,-10C227,-10 163,15 113,64C62,113 37,177 37,256z"/>
<glyph unicode="p" horiz-adv-x="633" d="M72,-179l0,702l121,0l0,-84C208,466 232,488 263,507C294,525 327,534 364,534C431,534 487,510 531,463C574,415 596,350 596,268l0,-8C596,177 575,112 532,63C489,14 433,-10 364,-10C325,-10 290,-1 260,16C230,33 208,55 193,82l0,-261M334,86C379,86 413,101 437,130C460,159 472,202 472,258l0,8C472,322 459,365 434,395C408,424 374,439 333,439C290,439 255,424 229,395C202,365 189,322 189,266l0,-8C189,201 202,159 228,130C253,101 289,86 334,86z"/>
<glyph unicode="q" horiz-adv-x="633" d="M440,-179l0,265C425,59 402,37 371,18C339,-1 305,-10 268,-10C200,-10 145,13 102,60C59,106 38,170 38,253l0,8C38,344 60,410 104,460C148,509 204,534 273,534C350,534 406,504 440,443l0,80l121,0l0,-702M298,86C342,86 377,101 404,130C431,159 444,202 444,259l0,8C444,324 432,367 407,396C382,425 348,439 303,439C258,439 224,424 199,394C174,363 162,320 162,264l0,-8C162,201 175,159 200,130C225,101 257,86 298,86z"/>
<glyph unicode="r" horiz-adv-x="397" d="M72,0l0,523l121,0l0,-98C228,495 284,530 363,531l0,-113C306,417 264,406 236,384C207,362 193,325 193,272l0,-272z"/>
<glyph unicode="s" horiz-adv-x="494" d="M251,-10C184,-10 131,5 93,35C55,65 35,108 32,163l114,0C149,135 159,114 175,100C191,86 216,79 250,79C313,79 344,101 344,146C344,167 336,182 319,193C302,203 273,211 232,218C162,229 113,247 85,270C57,293 43,328 43,377C43,426 62,465 101,493C140,520 186,534 239,534C364,534 433,481 444,376l-112,0C327,400 317,418 303,429C288,440 267,446 239,446C213,446 193,440 178,429C163,418 156,403 156,384C156,365 164,351 179,342C194,333 223,324 264,317C332,306 382,290 413,268C444,246 460,209 460,157C460,104 442,63 406,34C369,5 318,-10 251,-10z"/>
<glyph unicode="t" horiz-adv-x="369" d="M250,-9C199,-9 160,4 133,31C106,58 92,96 92,146l0,286l-70,0l0,91l70,0l0,115l121,0l0,-115l115,0l0,-91l-115,0l0,-275C213,112 233,90 273,90C296,90 316,93 332,100l0,-96C309,-5 281,-9 250,-9z"/>
<glyph unicode="u" horiz-adv-x="605" d="M247,-10C192,-10 149,6 116,39C83,72 67,121 67,188l0,335l121,0l0,-321C188,163 196,134 213,115C230,96 256,87 291,87C326,87 355,98 378,120C401,142 413,173 413,212l0,311l121,0l0,-523l-121,0l0,82C399,55 378,33 350,16C321,-1 287,-10 247,-10z"/>
<glyph unicode="v" horiz-adv-x="557" d="M209,0l-191,523l130,0l137,-399l135,399l119,0l-189,-523z"/>
</font>
</svg>
